#TITLE:No One Wins;
#SUBTITLE:~Quattro!!! original~;
#ARTIST:The Berzerker;
#TITLETRANSLIT:;
#SUBTITLETRANSLIT:;
#ARTISTTRANSLIT:;
#CREDIT:;
#BANNER:noonewins-banner.png;
#BACKGROUND:noonewins-bg.png;
#LYRICSPATH:;
#CDTITLE:quattro!!!cdtittle.png;
#MUSIC:The Berzerker - No One Wins.mp3;
#OFFSET:1.402;
#SAMPLESTART:70.510;
#SAMPLELENGTH:12.000;
#SELECTABLE:YES;
#BPMS:0.000=317.999;
#STOPS:;
#BGCHANGES:;
// cache tags:
#FIRSTBEAT:65.000;
#LASTBEAT:592.000;
#SONGFILENAME:Songs/Chilean Keyboard Megapack 3/(Quattro!!!) No one wins/no one wins.sm;
#HASMUSIC:1;
#HASBANNER:1;
#MUSICLENGTH:110.451;
// end cache tags

//---------------dance-single - ----------------
#NOTES:
     dance-single:
     :
     Challenge:
     15:
     1.000,1.000,1.000,0.172,1.000,1210.000,154.000,19.000,0.000,4.000:
0000
0000
0000
0000
,
0000
0000
0000
0000
,
0000
0000
0000
0000
,
0000
0000
0000
0000
,
0000
0000
0000
0000
,
0000
0000
0000
0000
,
0000
0000
0000
0000
,
0000
0000
0000
0000
,
0000
0000
0000
0000
,
0000
0000
0000
0000
,
0000
0000
0000
0000
,
0000
0000
0000
0000
,
0000
0000
0000
0000
,
0000
0000
0000
0000
,
0000
0000
0000
0000
,
0000
0000
0000
0000
,
0000
0000
1001
0010
0100
1000
0100
0010
,
0001
0010
0100
0010
0001
0010
0100
1000
,
0100
0010
1001
0000
0000
0000
0000
0000
,
0000
0000
0000
0000
0000
0011
0000
1100
,
0000
0101
0000
2002
0000
3113
0000
1010
,
0000
0110
0000
0011
0000
1001
0000
0110
,
0000
0101
0000
0110
0000
0011
0000
1100
,
0000
1001
0000
0101
0000
0011
0000
1001
,
0000
1100
0000
1001
0010
1100
0001
0110
,
1000
0101
1000
0101
0010
1100
0001
0110
,
1000
0101
1000
0110
0001
1010
1000
0101
,
1000
0110
0000
1100
0000
0110
0000
0101
,
0000
0101
0000
0101
0000
0000
0000
0000
,
1010
0000
0110
0101
,
0000
1100
0000
0101
,
0000
0000
0000
0000
0000
1100
0000
0110
,
0000
0000
0012
0000
0000
0000
0000
0000
1003
0100
1000
0100
1000
0100
0010
0100
,
0010
0100
0010
0001
0010
0001
0010
0100
0010
0100
0010
1000
0010
1000
0010
1000
,
0100
1000
0100
1000
0100
0010
0100
0010
0100
0001
0100
0001
0100
0001
0010
0100
,
1000
0100
0010
0001
0010
0100
1000
0100
0010
0001
0010
0100
1000
0100
0010
0001
,
0010
0100
1000
0100
0010
0001
0010
0100
1000
0100
0010
0001
2000
0100
0010
0100
,
3010
0100
0010
0100
0010
0001
0010
0001
0010
0001
0010
0001
0010
1000
0010
1000
,
0010
1000
0010
1000
0010
0100
0010
0100
0010
0100
0010
0100
0010
0001
0010
0001
,
0010
0001
0010
0001
0010
0100
1000
0100
0010
0001
0010
0100
0010
0001
1000
0100
,
0010
0100
1000
0100
1000
0100
1000
0100
1000
0100
1000
0100
1000
0100
2000
0100
,
0010
0100
3010
0100
0010
0100
0010
0100
0010
0100
0010
0001
0010
0001
0010
0001
,
0010
0001
0010
0001
0010
0001
1000
0001
1000
0001
1000
0001
1000
0001
1000
0001
,
1000
0100
0010
0001
0010
0100
1000
0100
0010
0001
0010
0100
0010
0001
1000
0100
,
0010
0100
1000
0001
1000
0001
1000
0001
1000
0001
1000
0100
0010
0001
0010
0001
,
0020
0100
1000
0100
1000
0100
1000
0130
1000
0100
1000
0100
1000
0100
0010
0100
,
0010
0100
0010
0100
0010
0100
0010
0001
0010
0001
0010
0001
0010
0001
0010
0001
,
1100
0000
0000
0000
0000
0011
0000
0000
,
0000
1000
0001
1000
0001
1000
0101
0010
,
0101
1000
0101
0000
1100
0000
0110
0000
,
0101
0011
0101
1100
,
0110
0101
1100
0110
,
0101
0110
1100
0101
,
0110
1100
0101
1010
,
0101
0110
0101
1100
,
0110
0101
0011
1001
,
1100
0110
1001
0101
,
1100
0110
0101
1001
,
0101
1001
1100
1010
,
0110
0101
1010
0101
,
0110
0101
1100
0110
,
0101
0011
0101
1100
,
1001
0101
0011
1100
,
0101
0110
1001
0110
,
1100
0110
0101
0011
,
0101
0000
0000
0000
1000
0100
0010
0001
0010
0100
0010
0001
1000
0100
0010
0100
,
1000
0100
0010
0001
0010
0100
1000
0100
0001
0010
1000
0100
0001
0010
0100
0010
,
0100
1000
0100
1000
0100
0010
0100
0010
0001
0010
0001
1000
0100
0010
0001
0010
,
0100
0010
0001
1000
0100
0010
0100
1000
0100
0010
0001
0010
0100
1000
0100
0010
,
0001
0010
0100
0010
0001
1000
0002
0010
0100
1000
0103
0010
0001
0100
0001
0100
,
0001
0010
0001
0010
0001
1000
0001
1000
0001
1000
0100
1000
0100
1000
0010
1000
,
0010
1000
0100
0010
0001
0010
0100
0010
0001
1000
0100
0010
0001
0010
0100
1000
,
0100
0010
0001
0010
0100
0010
0001
1000
0100
0010
0100
1000
0100
0010
0001
0010
,
0100
0010
0001
1000
0100
0010
0100
1000
0100
2000
0100
0010
0100
0010
3100
0010
,
0001
0010
0001
0010
0001
1000
0001
1000
0001
1000
0001
0010
0100
1000
0100
0010
,
0001
0010
0100
1000
0100
0010
0001
0010
0100
0010
0001
1000
0100
0010
0100
1000
,
0100
0010
0001
0010
0100
0010
0001
1000
0100
0010
0100
1000
0100
0010
0001
0010
,
0100
1000
0100
0010
0001
0010
0100
0010
0001
1000
0002
0010
0100
1000
0100
0010
,
0103
1000
0100
0010
0001
0010
0100
0010
0001
1000
0100
0010
0001
0010
0100
0010
,
0001
1000
0100
0010
0001
0010
0100
1000
0100
0010
0001
0010
0100
0010
0001
1000
,
0100
0010
0100
1000
0100
0010
0100
1000
0100
0010
0100
0010
0100
0010
0001
0010
,
0001
0010
0001
0010
0100
1000
0100
0010
0001
0100
0001
0010
2100
0000
0000
0000
,
0000
0000
3012
0000
0000
0000
1003
0100
,
1000
0100
1000
0000
0110
0000
0011
1000
,
0100
0010
1001
0000
0000
0000
1001
0010
,
0100
1000
0100
0010
1001
0000
1001
0100
,
0010
0001
0010
0100
1000
0100
0010
0100
,
0010
0100
0010
0001
0010
0001
0010
1000
,
0010
1000
0010
1000
0010
0001
0010
1000
,
0100
0010
0001
0210
0000
0000
0000
0311
,
0000
0000
1001
0100
0010
0001
0010
0100
,
1010
0000
0011
1000
0001
1000
0001
1000
,
0001
0010
0100
1000
0100
0010
0001
0010
,
0100
1000
0100
1000
0100
1000
0100
0010
,
0100
0010
0100
0010
0100
0010
0001
0010
,
0001
0010
0100
1000
0100
0010
0001
0010
,
0100
0010
0001
1000
0100
0010
0001
0102
,
0000
0000
0000
1103
0000
0000
1001
0010
,
0100
0000
1000
0000
0100
0000
0010
0000
0001
0000
0010
0000
1000
0001
1000
0001
,
2000
0000
0000
0000
,
0000
0000
0000
0000
,
0000
0000
0000
0000
,
0000
3000
0110
0000
0000
0000
1100
0000
0000
0000
0110
0000
0000
0000
0011
0000
,
0100
1000
0100
0010
0001
0010
0100
0010
,
0001
1000
0100
0010
0001
0010
0100
1000
,
0100
0010
0100
0010
0001
0010
0100
0010
,
0100
1001
0000
1001
0000
1001
0000
1001
,
0100
0010
0001
0010
0100
0010
0001
1000
,
0100
0010
0001
0010
0100
1000
0100
1000
,
0100
0010
0100
0010
0100
0010
0001
0010
,
0001
0010
0001
1000
0001
1000
0011
0000
,
0000
0000
0000
1100
0000
0000
0000
0110
,
0000
0011
0000
0000
0000
1100
0000
0000
,
0000
0110
0000
0000
0000
0000
0000
0011
,
0000
0000
0110
0000
0000
0000
1100
0000
0000
0000
0000
0000
0000
0000
1000
0001
,
1000
0001
1000
0001
1000
0001
1000
0001
0010
0100
0010
0100
0010
0100
0010
0100
,
0010
0100
1000
0100
1000
0100
1000
0100
1000
0100
0010
0100
0010
0100
0010
0100
,
0010
0100
0010
0001
0010
0001
0010
0001
0010
0001
0010
0001
1000
0001
1000
0001
,
1000
0001
1000
0001
0010
0100
1000
0100
0010
0001
0010
0100
1000
0100
0010
0001
,
0010
0100
2000
0001
0010
0100
0010
3100
0010
0001
0010
0100
0010
0001
0010
0100
,
0010
0001
1000
0100
0010
0100
1000
0100
0010
0100
1000
0100
0010
0001
0010
0100
,
1000
0100
0010
0001
0010
0100
0010
0001
1000
0100
0010
0100
1000
0100
0010
0001
,
0010
0100
1000
0100
0010
0001
0010
0100
0010
0001
1000
0100
0010
0100
1000
0100
,
0010
0001
0010
0100
0020
0001
1000
0001
1030
0001
0010
0100
0010
0100
0010
0100
,
1000
0100
1000
0100
0010
0001
0010
0001
0010
0001
1000
0100
0010
0001
0010
0100
,
0010
0001
1000
0100
0010
0001
0010
0100
1000
0100
0010
0001
0010
0100
0010
0001
,
1000
0100
0010
0100
1000
0100
0010
0001
0010
0100
0010
0001
1000
0100
0010
0100
,
1000
0001
1000
0001
1000
0001
0010
0100
2000
0100
0010
0001
3010
0100
1000
0100
,
0010
0001
0010
0100
0010
0001
1000
0100
0010
0001
1000
0001
1000
0001
0010
0100
,
1000
0001
1000
0001
1000
0100
0010
0001
1100
0000
0000
0000
0000
0000
0110
0000
,
0000
0000
0000
0001
1000
0001
1000
0001
,
1100
0001
1100
0010
1100
0001
0010
0100
,
1000
0100
0010
0001
0010
0100
0010
0001
,
1000
0100
0010
0100
1000
0100
0010
0001
,
1000
0001
1000
0001
0010
0100
1000
0100
,
0010
0001
0010
0100
1000
0100
1000
0100
,
1000
0100
0010
0100
0010
0100
0010
0001
,
0010
0001
0010
0001
0010
0100
1000
0100
,
1000
0000
0100
0000
1000
0000
0100
0000
0010
0000
0100
0000
0001
1000
0001
1000
,
0001
1000
0001
1000
0001
0000
0010
0000
0100
0000
1000
0000
0100
0000
0010
0000
,
0001
0010
0100
0010
0001
1000
0100
0010
,
0100
1000
0100
0010
0001
0010
0100
0010
,
0001
1000
0100
0010
0100
1000
0100
0010
,
0001
0010
0100
0010
0001
1000
0100
0010
,
0100
1000
0100
0010
0001
0010
0100
0010
,
0001
1000
0100
0010
0100
0010
0100
0010
,
0100
0000
0000
0000
0000
0000
1000
0000
0000
0000
0000
0000
0100
0000
0000
1000
0000
0000
0011
0000
0000
0000
0000
0000
0000
0000
0000
0000
0000
0000
0000
0000
0000
0000
0000
0000
0000
0000
0000
0000
0000
0000
0000
0000
0001
0000
0000
0000
,
1000
0001
1000
0001
1000
0022
0000
0000
0000
0000
0000
0000
,
0033
0000
0000
0000
;
